请选择 进入手机版 | 继续访问电脑版

 找回密码
 立即注册
查看: 348|回复: 33

[光碟] 春节联欢晚会歌曲精选 - (1988)相聚在龙年

[复制链接]

升级   2.8%

2

主题

32

回帖

194

金币

新手上路

发表于 2024-2-8 11:16:27 | 显示全部楼层 |阅读模式
本帖最后由 1818188 于 2024-2-8 11:30 编辑

春节联欢晚会歌曲精选 - (1988)相聚在龙年


中央电视台录制
中国国际电视总公司出版
华辰唱片发行
1995

曲目:
01.相聚在龙年                韦唯
02.男孩                          柳培德、李勇等
03.三百六十五里路           包娜娜
04.马车夫之歌               帕尔哈蒂
05.思念到永远               程琳

06.握手迪斯科              毛阿敏
07.我们是黄河、我们是泰山   彭丽媛
08.娜鲁湾情歌               万沙浪
09.歌中情                      蒋丽萍
10.道路                         董文华
11.心愿                         韦唯
12.大拜年                      孙立英、 芦秀梅等   
1988a1.jpg
1988b22.jpg
1988c3.jpg

--------------------------------------------------------------------------
Exact Audio Copy V1.0 beta 3 from 29. August 2011

EAC 抓取日志文件从11. 十月 2016, 20:01

春节联欢晚会歌曲精选 / (1988)相聚在龙年

使用驱动器  :PIONEER DVD-ROM DVD-232   Adapter: 2  ID: 0

读取模式      : 可靠Secure
使用精确流     : 是
清空音频缓存    : 否
使用 C2 指示器 : 否

读取偏移校正:               : 6
读取 Lead-In 和 Lead-Out : 否
用静音填充抓取中丢失偏移的采样       : 是
去除首尾静音块               : 否
在CRC 计算中使用了空样本       : 是
已用接口                  : Win NT 及 2000 本地 Win32 接口

所用输出模式: : 内部 WAV 函数
样本格式    : 44.100 Hz; 16 Bit; 立体声


已抓取 CD 的 TOC

     音轨 |    起始    |    长度    |  起始扇区  |  结束扇区  
    --------------------------------------------
      1 |  0:00.00 |  4:00.00 |      0 |  17999
      2 |  4:00.00 |  2:32.00 |  18000 |  29399
      3 |  6:32.00 |  3:53.00 |  29400 |  46874
      4 | 10:25.00 |  4:00.00 |  46875 |  64874
      5 | 14:25.00 |  3:04.00 |  64875 |  78674
      6 | 17:29.00 |  1:57.00 |  78675 |  87449
      7 | 19:26.00 |  4:14.00 |  87450 | 106499
      8 | 23:40.00 |  3:35.00 | 106500 | 122624
      9 | 27:15.00 |  3:38.00 | 122625 | 138974
     10 | 30:53.00 |  4:21.00 | 138975 | 158549
     11 | 35:14.00 |  5:38.00 | 158550 | 183899
     12 | 40:52.00 |  6:24.00 | 183900 | 212699


范围状态及错误

已选择范围

     文件名 D:\XXXX原抓\春节联欢晚会歌曲精选 - (1988)相聚在龙年.wav

     峰值电平 100.0 %
     抓取速度 6.1 X
     范围质量 100.0 %
     复制 CRC F9779304
     复制成功

没有错误发生

状态报告结尾



游客,如果您要查看本帖隐藏内容请回复












评分

参与人数 1威望 +8 金币 +16 贡献 +8 收起 理由
四季歌 + 8 + 16 + 8 很给力!

查看全部评分

升级   100%

0

主题

111

回帖

1万

金币

VIP

终身会员

发表于 2024-2-8 11:26:30 | 显示全部楼层
感谢楼主分享,88年 多么美好记忆!

升级   100%

13

主题

89

回帖

1万

金币

VIP

终身会员

发表于 2024-2-8 11:33:48 | 显示全部楼层
CD版的首次看到,音质肯定比磁带版的好了,感谢分享!

升级   100%

27

主题

38

回帖

1万

金币

版主

论坛版主

发表于 2024-2-8 12:13:49 | 显示全部楼层
今又龙年,真的是日子过的好快啊,,,,

升级   0.48%

0

主题

11

回帖

37

金币

新手上路

发表于 2024-2-8 12:35:58 | 显示全部楼层
这估计是某爱好者自制的cd

升级   13.46%

16

主题

78

回帖

998

金币

新手上路

发表于 2024-2-8 12:36:18 | 显示全部楼层
日子过得好快呀,《今又龙年》,青年变老年了。

升级   0.53%

0

主题

24

回帖

29

金币

新手上路

发表于 2024-2-8 12:44:59 | 显示全部楼层
震撼震惊  居然有CD版的  88年央视春晚永难忘

升级   100%

0

主题

35

回帖

1万

金币

VIP

终身会员

发表于 2024-2-8 13:05:25 | 显示全部楼层
相聚在龙年的磁带我有,CD唱片难得,谢谢!

升级   1.01%

0

主题

17

回帖

84

金币

新手上路

发表于 2024-2-8 14:03:23 | 显示全部楼层
今有龙年,回忆往昔,谢谢楼主分享。

升级   1.66%

1

主题

98

回帖

65

金币

新手上路

发表于 2024-2-8 14:47:54 | 显示全部楼层
匆匆多少年过去 恍若昨天
您需要登录后才可以回帖 登录 | 立即注册

本版积分规则

快速回复 返回顶部 返回列表