请选择 进入手机版 | 继续访问电脑版

 找回密码
 立即注册
查看: 1393|回复: 8

[光碟] 马一鸣.2007 - 百鸟朝凤 CD+DVD【飞乐】【BD/WAV/590M】

[复制链接]

12

主题

105

回帖

1020

金币

新手上路

VIP会员

发表于 2024-2-18 20:01:56 | 显示全部楼层 |阅读模式
搜狗高速浏览器截图20240217201521.jpg


搜狗高速浏览器截图20240217201606.jpg


搜狗高速浏览器截图20240217201715.jpg


搜狗高速浏览器截图20240217201644.jpg




专辑名称:百鸟朝凤 CD+DVD
专辑歌手:马一鸣
资源格式:WAV / 整轨,ISO
版权提供:北京华友飞乐数码音乐科技有限公司
发行公司:广东飞乐影视制品有限公司
出版公司:九洲音像出版公司
发行时间:2007年
ISRC:CN-A65-06-679-00/A.J6  CB68030
ISBN:9787880884272


简介

        我们一直熟悉的民歌手马一鸣变了,从作品到形象变得很彻底。因为她想让一种新的音乐激情充斥全身,她要把民歌的魅力展现到极致。她个人大碟中的新作,首首给你不同以往的感受。国内新锐全能音乐唱作人徐子崴的倾情之作,再加上在乐坛有“编曲怪杰”之称的李小亮出色的编配,都给民歌以新的诠释。从《幸福谣》到《月牙情思》,从《桃花潭》到《你是我的啊哩哩》,从《四季情歌》到最新大作《百鸟朝凤》,每一首都是过耳不忘,百听不厌。马一鸣全新造型更是让人耳目一新,全新MV《幸福谣》中的她犹如公主,贵气而又美丽,她把幸福的故事向我们娓娓道来。

       “马一鸣”和“新民歌”给人的感觉越来越不可分割,马一鸣会一直唱新民歌,新民歌也最适合马一鸣。 马一鸣的深厚专业根基和她本身所散发的青春潮流气息早就注定她一定是个新民歌的歌者, 马一鸣对新民歌的演绎,完美的把民歌和通俗音乐融合成为了一种新鲜的韵味,她具有能够准确把握民歌的基础和对时尚的准确理解,新民歌会因为她加入的时尚元素而焕发新鲜夺目的光彩,你会惊讶于马一鸣的这种融会贯通的歌唱状态,她完全能体现出新民歌形成音乐潮流的价值所在,追求了新民歌的朴素和本真的内涵,让马一鸣的歌唱无比纯净。 马一鸣演唱的每首歌里的新民歌的气息都有迹可寻,人们最熟悉的非典时期歌颂医者的《我用歌声谢谢你》,受到医务者的感动和喜爱这就是对马一鸣新民歌演唱有着巨大的鼓励。之后她的《走在百姓行列里》也是用越来越贴近百姓的新民歌形式来歌唱,为此还获得了“百姓歌手”的称号。所以她在2003、2004年两年都被邀请参加了春节晚会,从此她的新民歌得到了全国人民的肯定。

        她的第一主打歌《百鸟朝凤》将更能表现出马一鸣对新民歌纯熟的把握,相信会带给歌迷们惊喜还会有很多无以言表的感动。为了让自己有更多的突破,马一鸣希望能尽可能的丰富她专辑的音乐元素。马一鸣一直在为新民歌的寻找更新的突破点,马一鸣努力的尝试将让她的歌唱更加纯净,更值得聆听,请相信这个纯净的新民歌的歌者。
  
  
曲目

CD
01 百鸟朝凤
02 好中国(庞龙 合唱)
03 幸福谣
04 你是我的阿哩哩
05 月牙情思
06 四季情歌
07 女驸马的故事
08 听花山
09 桃花潭
10 未出嫁的姑娘
11 妈妈在哪哪是家
12 好中国
13 幸福谣(伴奏)
14 好中国(伴奏)

DVD
01 百鸟朝凤
02 幸福谣
03 走在百姓行列里
04 听花山
05 我用歌声谢谢你
06 共享和谐
07 秋天的诉说
08 感谢今天的好时光
09 长城长
10 亲爱的祖国

初学复制DVD,自测完美播放,请指正。




试听,百鸟朝凤

作词:徐子淳
作曲:徐子崴
编曲:李小亮

海鸥迎春  一帆风顺
鸳鸯报春  两心相印
燕子鸣春  三羊开泰
百灵闹春  四季开心

喜鹊迎春  五福临门
白鸽报春  六六大顺
仙鹤鸣春  七星高照
云雀闹春  八方好运

孔雀开屏  九洲同庆
鸿雁齐飞  十面欢腾
凤凰一鸣  百鸟朝凤
百鸟朝凤  千家万户  吉祥太平
百鸟朝凤  千秋万代  繁荣昌盛



下载地址
游客,如果您要查看本帖隐藏内容请回复

评分

参与人数 1威望 +8 金币 +16 贡献 +8 收起 理由
四季歌 + 8 + 16 + 8 很给力!

查看全部评分

12

主题

105

回帖

1020

金币

新手上路

VIP会员

 楼主| 发表于 2024-2-18 20:04:11 | 显示全部楼层
搜狗高速浏览器截图20240218195712.jpg




Exact Audio Copy V0.99 prebeta 5 from 4. May 2009

EAC 抓取日志文件从16. 二月 2024, 15:11

马一鸣 / 百鸟朝凤

使用驱动器  :Lenovo  Slim_USB_Burner   Adapter: 0  ID: 0

读取模式     : 保护
使用精确流   : 是
废除音频缓冲 : 是
使用 C2 指针 : 否

读取偏移校正                   : 6
读取 Lead-In 和 Lead-Out       : 否
用静音填充抓取中丢失偏移的采样 : 是
去除首尾静音块                 : 否
在 CRC 计算中使用了空样本      : 否
已用接口                       : Win NT 及 2000 本地 Win32 接口

所用输出格式 : 内部 WAV 函数
样本格式     : 44.100 Hz;16 Bit;立体声


被抓轨 CD 的 TOC

     音轨 |   开始   |   长度   | 起始扇区 | 结尾扇区
    --------------------------------------------------
       1  |  0:00.00 |  4:11.60 |       0  |   18884  
       2  |  4:11.60 |  4:19.08 |   18885  |   38317  
       3  |  8:30.68 |  4:28.43 |   38318  |   58460  
       4  | 12:59.36 |  3:28.13 |   58461  |   74073  
       5  | 16:27.49 |  4:13.21 |   74074  |   93069  
       6  | 20:40.70 |  3:02.00 |   93070  |  106719  
       7  | 23:42.70 |  4:32.13 |  106720  |  127132  
       8  | 28:15.08 |  3:21.24 |  127133  |  142231  
       9  | 31:36.32 |  4:03.70 |  142232  |  160526  
      10  | 35:40.27 |  4:25.45 |  160527  |  180446  
      11  | 40:05.72 |  3:49.51 |  180447  |  197672  
      12  | 43:55.48 |  4:19.03 |  197673  |  217100  
      13  | 48:14.51 |  4:33.50 |  217101  |  237625  
      14  | 52:48.26 |  4:17.63 |  237626  |  256963  


范围状态及错误

已选择范围

     文件名 C:\Users\lenovo\Documents\马一鸣 - 百鸟朝凤.wav

     峰值电平 100.0 %
     范围质量 100.0 %
     复制 CRC 79860BC7
     复制成功

没有错误发生


AccurateRip 概要

音轨  1  数据库中未见
音轨  2  数据库中未见
音轨  3  数据库中未见
音轨  4  数据库中未见
音轨  5  数据库中未见
音轨  6  数据库中未见
音轨  7  数据库中未见
音轨  8  数据库中未见
音轨  9  数据库中未见
音轨 10  数据库中未见
音轨 11  数据库中未见
音轨 12  数据库中未见
音轨 13  数据库中未见
音轨 14  数据库中未见

没有任何音轨出现在 AccurateRip 数据库中

状态报告结尾


0

主题

42

回帖

1万

金币

VIP

终身会员

发表于 2024-2-19 09:20:31 | 显示全部楼层
马一鸣的歌曲没有听过,谢谢!

0

主题

23

回帖

77

金币

新手上路

发表于 2024-2-19 10:20:54 | 显示全部楼层
听听她这首百鸟朝凤 感谢分享

0

主题

306

回帖

9851

金币

VIP

终身会员

发表于 2024-2-19 13:45:02 | 显示全部楼层
多谢分享!

0

主题

865

回帖

195

金币

新手上路

发表于 2024-2-19 20:36:43 | 显示全部楼层
收了她的歌听。

0

主题

152

回帖

19

金币

新手上路

发表于 2024-2-20 21:09:33 | 显示全部楼层
感谢分享

0

主题

195

回帖

1万

金币

VIP

终身会员

发表于 2024-4-4 08:47:01 | 显示全部楼层
不熟悉的歌手,感谢楼主分享。

0

主题

66

回帖

18

金币

新手上路

发表于 2024-4-5 09:40:46 手机客户端 | 显示全部楼层
没听过她歌,来听听,多谢分享!
您需要登录后才可以回帖 登录 | 立即注册

本版积分规则

快速回复 返回顶部 返回列表