请选择 进入手机版 | 继续访问电脑版

 找回密码
 立即注册
查看: 120|回复: 7

[光碟] 龙行龘龘 罗婉琳《龙在飞》(2006)+《又唱南泥湾》(2008)【BD/WAV/458+452M】

[复制链接]

升级   100%

8

主题

74

回帖

1388

金币

VIP

VIP会员

发表于 2024-2-9 20:19:28 | 显示全部楼层 |阅读模式
本帖最后由 搜老歌 于 2024-2-10 09:18 编辑


IMG20240209145000_副本1.jpg

IMG20240209145052_副本.jpg

IMG20240209145211_副本.jpg


IMG20240209144832_副本.jpg


IMG20240209144802_副本.jpg


IMG20240209144919_副本.jpg


专辑名称:龙在飞
专辑歌手:罗婉琳
资源格式:WAV / 整轨
发行公司:孔雀唱片
出版公司:广东音像出版社
发行时间:2006年
ISRC:CN-F18-06-480-00/A.J6  DCD-1735
ISBN:9787798941180


简介

        罗婉琳,出生于广东的“鱼米之乡”—顺德。2002年毕业于星海音乐学院,师从陈肖容教授,在此期间利用寒暑假在上海音乐学院随声乐系副主任陈星教授进行学习。
  
  2002年至2004年到奥地利维也纳进行深造。师从维也纳国立音乐大学声乐系教 授 DORING RALF 和马勒学院 MAGHATAYOI 教授,并得到奥地利格拉茨 (GRAZ) 音乐大学声乐系主任 KLIETMAN MARTIN 教授的授课和指导,现于沈阳音乐学院进行民族声乐的学习,师从王瑞江教授。
  
  民族的世界的,民歌正如中国东方的一条龙,飞扬在世界的舞台上。龙在飞,飞扬的民歌带给你!
  

曲目

01 龙在飞
02 中国妹
03 一万个祝福
04 骨肉同胞
05 中国长城
06 我爱家乡的微山湖
07 归乡的路
08 红红的年
09 海姑娘
10 红红的日子
11 当兵光荣


专辑名称:又唱南泥湾
专辑歌手:罗婉琳
资源格式:WAV / 整轨
发行公司:孔雀唱片
出版公司:广东音像出版社
发行时间:2008年
ISRC:CN-F18-08-402-00/A.J6
ISBN:9787798957754


曲目

01 又唱南泥湾
02 青藏高原是我家
03 三月
04 仰望天山
05 一起飞翔
06 载歌载舞
07 珠穆郎玛峰
08 爱在天地间
09 龙在飞
10 一万个祝福

WAV+CUE+三大图+LOG
EAC开了自动生成LOG,所以新建文件夹里是原始CUE和手动生成LOG


试听
龙在飞


红红的年


红红的日子



搜狗高速浏览器截图20240209194502.jpg


搜狗高速浏览器截图20240209194402.jpg



下载地址
游客,如果您要查看本帖隐藏内容请回复



升级   100%

8

主题

74

回帖

1388

金币

VIP

VIP会员

 楼主| 发表于 2024-2-9 20:26:24 | 显示全部楼层

Exact Audio Copy V0.99 prebeta 5 from 4. May 2009

EAC 抓取日志文件从6. 二月 2024, 19:23

罗婉琳 / 龙在飞

使用驱动器  :Lenovo  Slim_USB_Burner   Adapter: 0  ID: 0

读取模式     : 保护
使用精确流   : 是
废除音频缓冲 : 是
使用 C2 指针 : 否

读取偏移校正                   : 6
读取 Lead-In 和 Lead-Out       : 否
用静音填充抓取中丢失偏移的采样 : 是
去除首尾静音块                 : 否
在 CRC 计算中使用了空样本      : 否
已用接口                       : Win NT 及 2000 本地 Win32 接口

所用输出格式 : 内部 WAV 函数
样本格式     : 44.100 Hz;16 Bit;立体声


被抓轨 CD 的 TOC

     音轨 |   开始   |   长度   | 起始扇区 | 结尾扇区
    --------------------------------------------------
       1  |  0:00.00 |  3:06.61 |       0  |   14010  
       2  |  3:06.61 |  3:10.22 |   14011  |   28282  
       3  |  6:17.08 |  4:22.71 |   28283  |   48003  
       4  | 10:40.04 |  4:18.53 |   48004  |   67406  
       5  | 14:58.57 |  5:02.53 |   67407  |   90109  
       6  | 20:01.35 |  2:43.52 |   90110  |  102386  
       7  | 22:45.12 |  4:38.32 |  102387  |  123268  
       8  | 27:23.44 |  3:30.47 |  123269  |  139065  
       9  | 30:54.16 |  4:57.34 |  139066  |  161374  
      10  | 35:51.50 |  3:56.69 |  161375  |  179143  
      11  | 39:48.44 |  4:30.64 |  179144  |  199457  


范围状态及错误

已选择范围

     文件名 C:\Users\lenovo\Documents\罗婉琳 - 龙在飞.wav

     峰值电平 99.8 %
     范围质量 100.0 %
     复制 CRC 1A244849
     复制成功

没有错误发生


AccurateRip 概要

音轨  1  数据库中未见
音轨  2  数据库中未见
音轨  3  数据库中未见
音轨  4  数据库中未见
音轨  5  数据库中未见
音轨  6  数据库中未见
音轨  7  数据库中未见
音轨  8  数据库中未见
音轨  9  数据库中未见
音轨 10  数据库中未见
音轨 11  数据库中未见

没有任何音轨出现在 AccurateRip 数据库中

状态报告结尾

==========

Exact Audio Copy V0.99 prebeta 5 from 4. May 2009

EAC 抓取日志文件从6. 二月 2024, 19:08

罗婉琳 / 又唱南泥湾

使用驱动器  :Lenovo  Slim_USB_Burner   Adapter: 0  ID: 0

读取模式     : 保护
使用精确流   : 是
废除音频缓冲 : 是
使用 C2 指针 : 否

读取偏移校正                   : 6
读取 Lead-In 和 Lead-Out       : 否
用静音填充抓取中丢失偏移的采样 : 是
去除首尾静音块                 : 否
在 CRC 计算中使用了空样本      : 否
已用接口                       : Win NT 及 2000 本地 Win32 接口

所用输出格式 : 内部 WAV 函数
样本格式     : 44.100 Hz;16 Bit;立体声


被抓轨 CD 的 TOC

     音轨 |   开始   |   长度   | 起始扇区 | 结尾扇区
    --------------------------------------------------
       1  |  0:00.00 |  4:51.29 |       0  |   21853  
       2  |  4:51.29 |  6:04.39 |   21854  |   49192  
       3  | 10:55.68 |  3:39.35 |   49193  |   65652  
       4  | 14:35.28 |  4:39.20 |   65653  |   86597  
       5  | 19:14.48 |  5:13.09 |   86598  |  110081  
       6  | 24:27.57 |  3:37.13 |  110082  |  126369  
       7  | 28:04.70 |  3:58.03 |  126370  |  144222  
       8  | 32:02.73 |  4:12.17 |  144223  |  163139  
       9  | 36:15.15 |  3:06.53 |  163140  |  177142  
      10  | 39:21.68 |  4:22.42 |  177143  |  196834  


范围状态及错误

已选择范围

     文件名 C:\Users\lenovo\Documents\罗婉琳 - 又唱南泥湾.wav

     峰值电平 100.0 %
     范围质量 100.0 %
     复制 CRC 9E6C6574
     复制成功

没有错误发生


AccurateRip 概要

音轨  1  数据库中未见
音轨  2  数据库中未见
音轨  3  数据库中未见
音轨  4  数据库中未见
音轨  5  数据库中未见
音轨  6  数据库中未见
音轨  7  数据库中未见
音轨  8  数据库中未见
音轨  9  数据库中未见
音轨 10  数据库中未见

没有任何音轨出现在 AccurateRip 数据库中

状态报告结尾

升级   100%

27

主题

38

回帖

1万

金币

版主

论坛版主

发表于 2024-2-10 09:15:05 | 显示全部楼层
唱得不错,龙在飞飞,寓意也不错,感谢分享!

升级   0.69%

0

主题

49

回帖

20

金币

新手上路

发表于 2024-2-10 10:47:38 | 显示全部楼层
某一天才知道 孔雀廊是中国最大的娱乐公司 业务遍及东南亚  以前还真是小瞧了它

升级   100%

0

主题

37

回帖

738

金币

VIP

VIP会员

发表于 2024-2-12 22:59:26 | 显示全部楼层
谢谢分享!

升级   6.37%

0

主题

533

回帖

104

金币

新手上路

发表于 2024-2-13 21:59:44 | 显示全部楼层
收了她的歌听。

升级   100%

0

主题

35

回帖

1万

金币

VIP

终身会员

发表于 2024-2-19 14:54:28 | 显示全部楼层
罗婉琳的歌曲没有听过,下载欣赏了,谢谢!

升级   0.21%

0

主题

14

回帖

7

金币

新手上路

发表于 2024-2-20 11:09:11 手机客户端 | 显示全部楼层
试听还是不错的,多谢分享!
您需要登录后才可以回帖 登录 | 立即注册

本版积分规则

快速回复 返回顶部 返回列表