开启辅助访问 天气与日历 收藏本站充币

数字音乐论坛

 找回密码
 立即注册
查看: 152|回复: 10

[原创]唐尼《唐情说爱》[635Mwav分轨][百度]

[复制链接] TA的其它主题
  • TA的每日心情
    难过
    5 小时前
  • 签到天数: 102 天

    [LV.6]常住居民II

    升级   57.9%

    8

    主题

    214

    帖子

    1158

    积分

    新手上路

    Rank: 1

    鲜花(2) 鸡蛋(0)
    发表于 2021-10-12 10:22:45 | 显示全部楼层 |阅读模式
    本帖最后由 繁华落定 于 2021-10-12 21:37 编辑

    图像 (13)_副本.jpg

    图像 (9)_副本.jpg

    图像 2_副本.jpg

    唱片名称:唐情说爱4本地词曲家作品集1
    唱片公司:RUSΛ  Marketing
    发行年代:2013
    文件格式:WAV分轨
    抓轨软件:EAC
    01那一夜你挥挥手
    02褪色情(刘秋仪合唱)
    03一曲寄知音
    04够了够了
    05梦一般的她
    06依然相信他(试听)




    07一个小岛一首情歌
    08失恋心声
    09慈祥的爸爸
    10莎哟哪啦
    11永不言悔
    12沉睡的情愁
    13别后多珍重
    14应该说什么
    15谁都没有错
    16一首爱的歌
    17含泪诉别离
    18叫我等着你压缩包内有歌词扫描大图

    游客,如果您要查看本帖隐藏内容请回复


    提取码.zip (166 Bytes, 下载次数: 4, 售价: 50 金币)



    评分

    参与人数 1威望 +10 金币 +50 贡献 +10 收起 理由
    WSAN + 10 + 50 + 10 赞一个!

    查看全部评分

    回复 鲜花(2) 鸡蛋(0)

    使用道具 举报

  • TA的每日心情
    难过
    5 小时前
  • 签到天数: 102 天

    [LV.6]常住居民II

    升级   57.9%

    8

    主题

    214

    帖子

    1158

    积分

    新手上路

    Rank: 1

    鲜花(2) 鸡蛋(0)
     楼主| 发表于 2021-10-12 10:25:44 | 显示全部楼层
    Exact Audio Copy V0.99 prebeta 5 from 4. May 2009

    EAC 抓取日志文件从29. 八月 2021, 09:52

    未知艺术家 / 未知标题

    使用驱动器  :ASUS    DVD-E818A9T   Adapter: 2  ID: 0

    读取模式     : 保护
    使用精确流   : 是
    废除音频缓冲 : 是
    使用 C2 指针 : 否

    读取偏移校正                   : 0
    读取 Lead-In 和 Lead-Out       : 否
    用静音填充抓取中丢失偏移的采样 : 是
    去除首尾静音块                 : 否
    在 CRC 计算中使用了空样本      : 否
    已用接口                       : Win NT 及 2000 本地 Win32 接口
    间隙处理                       : 未检出,故附加至前一音轨

    所用输出格式   : 用户定义的编码器
    已选比特率     : 768 kBit/s
    质量           : 高
    添加 ID3 标签  : 否
    命令行压缩器   : C:\Users\Administrator.SKY-20210608QBC\AppData\Local\Temp\HZ$D.796.484\HZ$D.796.485\FLAC\FLAC.EXE
    附加命令行参数 : -6 -V -T "ARTIST=%a" -T "TITLE=%t" -T "ALBUM=%g" -T "DATE=%y" -T "TRACKNUMBER=%n" -T "GENRE=%m" -T "COMMENT=%e" %s -o %d


    被抓轨 CD 的 TOC

         音轨 |   开始   |   长度   | 起始扇区 | 结尾扇区
        --------------------------------------------------
           1  |  0:00.00 |  3:48.74 |       0  |   17173  
           2  |  3:48.74 |  4:21.26 |   17174  |   36774  
           3  |  8:10.25 |  3:13.28 |   36775  |   51277  
           4  | 11:23.53 |  3:15.25 |   51278  |   65927  
           5  | 14:39.03 |  2:59.65 |   65928  |   79417  
           6  | 17:38.68 |  3:37.58 |   79418  |   95750  
           7  | 21:16.51 |  3:13.45 |   95751  |  110270  
           8  | 24:30.21 |  3:09.40 |  110271  |  124485  
           9  | 27:39.61 |  3:35.65 |  124486  |  140675  
          10  | 31:15.51 |  4:02.10 |  140676  |  158835  
          11  | 35:17.61 |  3:06.62 |  158836  |  172847  
          12  | 38:24.48 |  3:25.43 |  172848  |  188265  
          13  | 41:50.16 |  4:12.17 |  188266  |  207182  
          14  | 46:02.33 |  4:37.57 |  207183  |  228014  
          15  | 50:40.15 |  3:16.44 |  228015  |  242758  
          16  | 53:56.59 |  4:27.22 |  242759  |  262805  
          17  | 58:24.06 |  3:01.01 |  262806  |  276381  
          18  | 61:25.07 |  3:40.12 |  276382  |  292893  


    音轨  1

         文件名 D:\Track01.wav

         峰值电平 98.9 %
         音轨质量 100.0 %
         复制 CRC A70C6019
         复制成功

    音轨  2

         文件名 D:\Track02.wav

         峰值电平 98.8 %
         音轨质量 99.9 %
         复制 CRC 3D2FE325
         复制成功

    音轨  3

         文件名 D:\Track03.wav

         峰值电平 98.9 %
         音轨质量 100.0 %
         复制 CRC 8B0F3EA4
         复制成功

    音轨  4

         文件名 D:\Track04.wav

         峰值电平 98.8 %
         音轨质量 100.0 %
         复制 CRC A92E7C26
         复制成功

    音轨  5

         文件名 D:\Track05.wav

         峰值电平 98.9 %
         音轨质量 100.0 %
         复制 CRC 2E7E5B0E
         复制成功

    音轨  6

         文件名 D:\Track06.wav

         峰值电平 98.8 %
         音轨质量 100.0 %
         复制 CRC 018691B1
         复制成功

    音轨  7

         文件名 D:\Track07.wav

         峰值电平 98.9 %
         音轨质量 99.9 %
         复制 CRC 6A26DE7C
         复制成功

    音轨  8

         文件名 D:\Track08.wav

         峰值电平 98.8 %
         音轨质量 100.0 %
         复制 CRC 6EF72FCA
         复制成功

    音轨  9

         文件名 D:\Track09.wav

         峰值电平 98.9 %
         音轨质量 99.9 %
         复制 CRC 85301699
         复制成功

    音轨 10

         文件名 D:\Track10.wav

         峰值电平 98.9 %
         音轨质量 100.0 %
         复制 CRC E606426C
         复制成功

    音轨 11

         文件名 D:\Track11.wav

         峰值电平 98.8 %
         音轨质量 100.0 %
         复制 CRC 39C5ECB6
         复制成功

    音轨 12

         文件名 D:\Track12.wav

         峰值电平 98.9 %
         音轨质量 99.9 %
         复制 CRC 1DBCF1B4
         复制成功

    音轨 13

         文件名 D:\Track13.wav

         峰值电平 98.8 %
         音轨质量 100.0 %
         复制 CRC FFAD73A6
         复制成功

    音轨 14

         文件名 D:\Track14.wav

         峰值电平 98.8 %
         音轨质量 100.0 %
         复制 CRC 64FA284D
         复制成功

    音轨 15

         文件名 D:\Track15.wav

         峰值电平 98.9 %
         音轨质量 99.9 %
         复制 CRC 664198C0
         复制成功

    音轨 16

         文件名 D:\Track16.wav

         峰值电平 98.9 %
         音轨质量 99.9 %
         复制 CRC BFB90EE7
         复制成功

    音轨 17

         文件名 D:\Track17.wav

         峰值电平 98.9 %
         音轨质量 99.9 %
         复制 CRC 016CE778
         复制成功

    音轨 18

         文件名 D:\Track18.wav

         复制成功

    状态报告结尾
    回复 鲜花(2) 鸡蛋(0)

    使用道具 举报

  • TA的每日心情

    4 小时前
  • 签到天数: 164 天

    [LV.7]常住居民III

    升级   100%

     成长值: 190

    1

    主题

    390

    帖子

    1028

    积分

    VIP

    Rank: 5Rank: 5

    VIP勋章

    鲜花(0) 鸡蛋(0)
    发表于 2021-10-12 15:47:37 | 显示全部楼层
    感谢分享唐尼好资源 试听音质非常好
    回复 鲜花(0) 鸡蛋(0)

    使用道具 举报

  • TA的每日心情

    7 小时前
  • 签到天数: 88 天

    [LV.6]常住居民II

    升级   13.25%

    1

    主题

    157

    帖子

    265

    积分

    新手上路

    Rank: 1

    鲜花(0) 鸡蛋(0)
    发表于 2021-10-12 15:58:01 | 显示全部楼层
    谢谢楼主分享优质资源。
    回复 鲜花(0) 鸡蛋(0)

    使用道具 举报

  • TA的每日心情
    擦汗
    前天 14:13
  • 签到天数: 459 天

    [LV.9]以坛为家II

    升级   100%

    22

    主题

    1702

    帖子

    1万

    积分

    版主

    Rank: 7Rank: 7Rank: 7

    贵宾勋章

    鲜花(8) 鸡蛋(0)
    发表于 2021-10-12 18:24:21 | 显示全部楼层
    洗版 原来收的没歌词 换成楼主的这张 谢谢楼主的大力分享 点赞
    回复 鲜花(8) 鸡蛋(0)

    使用道具 举报

  • TA的每日心情
    擦汗
    前天 14:13
  • 签到天数: 459 天

    [LV.9]以坛为家II

    升级   100%

    22

    主题

    1702

    帖子

    1万

    积分

    版主

    Rank: 7Rank: 7Rank: 7

    贵宾勋章

    鲜花(8) 鸡蛋(0)
    发表于 2021-10-12 18:27:41 | 显示全部楼层
    楼主 你的提取码已经购买 怎么没有呀
    回复 鲜花(8) 鸡蛋(0)

    使用道具 举报

  • TA的每日心情
    奋斗
    昨天 18:47
  • 签到天数: 487 天

    [LV.9]以坛为家II

    升级   13.28%

    1

    主题

    1889

    帖子

    3531

    积分

    中级会员

    Rank: 3Rank: 3

    鲜花(0) 鸡蛋(0)
    发表于 2021-10-12 18:38:30 | 显示全部楼层
    很喜欢唐尼的歌,这个系列一直没见着1、3集,谢谢分享!
    回复 鲜花(0) 鸡蛋(0)

    使用道具 举报

  • TA的每日心情
    难过
    5 小时前
  • 签到天数: 102 天

    [LV.6]常住居民II

    升级   57.9%

    8

    主题

    214

    帖子

    1158

    积分

    新手上路

    Rank: 1

    鲜花(2) 鸡蛋(0)
     楼主| 发表于 2021-10-12 18:51:02 手机APP客户端 | 显示全部楼层
    温古知新 发表于 2021-10-12 18:27
    楼主 你的提取码已经购买 怎么没有呀

    抱歉,今天我检查过有的呀,我现在在外面,如真是这样,等我回家再编辑补上,请见谅。

    点评

    不急 把提取码打包成rar文件 1.上传附件 2.设置金额 3.点确认就自动形成购买附件  发表于 2021-10-12 20:53
    回复 鲜花(2) 鸡蛋(0)

    使用道具 举报

  • TA的每日心情
    难过
    5 小时前
  • 签到天数: 102 天

    [LV.6]常住居民II

    升级   57.9%

    8

    主题

    214

    帖子

    1158

    积分

    新手上路

    Rank: 1

    鲜花(2) 鸡蛋(0)
     楼主| 发表于 2021-10-12 19:18:01 手机APP客户端 | 显示全部楼层
    怎样编辑上传附件,新手上路,敬请各位前辈或是管理员指导一下,在此感谢了!
    回复 鲜花(2) 鸡蛋(0)

    使用道具 举报

  • TA的每日心情
    难过
    5 小时前
  • 签到天数: 102 天

    [LV.6]常住居民II

    升级   57.9%

    8

    主题

    214

    帖子

    1158

    积分

    新手上路

    Rank: 1

    鲜花(2) 鸡蛋(0)
     楼主| 发表于 2021-10-12 21:43:50 | 显示全部楼层
    温古知新 发表于 2021-10-12 18:27
    楼主 你的提取码已经购买 怎么没有呀

    已重新编辑上传,感谢温古知新版主指导,已付的金币是不是扣回了,还是我私发提取码给你?
    回复 鲜花(2) 鸡蛋(0)

    使用道具 举报

    您需要登录后才可以回帖 登录 | 立即注册

    本版积分规则

    Archiver|手机版|小黑屋|移动版|数字音乐论坛 ( 津ICP备09009336号-1 )

    GMT+8, 2021-10-23 15:26 , Processed in 1.234375 second(s), 60 queries .

    Powered by Discuz! X3.4 Licensed

    © 2008-2021 www.22090.com

    快速回复 返回顶部 返回列表