开启辅助访问 天气与日历 收藏本站充币

数字音乐论坛

 找回密码
 立即注册
查看: 128|回复: 7

[原创][双电子琴]《HF-FI车载专用24K金天碟3》[580MBWAV整轨+CUE][百度]

[复制链接] TA的其它主题
  • TA的每日心情
    难过
    5 小时前
  • 签到天数: 102 天

    [LV.6]常住居民II

    升级   57.9%

    8

    主题

    214

    帖子

    1158

    积分

    新手上路

    Rank: 1

    鲜花(2) 鸡蛋(0)
    发表于 2021-10-6 22:32:57 | 显示全部楼层 |阅读模式
    本帖最后由 繁华落定 于 2021-10-13 21:25 编辑

    图像 (35)_副本.jpg

    图像 (36)_副本.jpg

    图像 (34)_副本.jpg
    专辑:《HF-FI车载专用24K金天碟3》
    【出版公司:珠影白天鹅音像出版社】
    【唱片编号:SRS-1126】
    文件大小:580MB
    文件格式:WAV整轨+CUE
    抓轨软件:EAC
    专辑曲目:

    01.伤心太平洋
    02.月亮惹的祸
    03.让我喜欢让我忧
    04.把悲伤留给自己
    05.浪人情歌
    06.谢谢你的爱
    07.鲁冰花
    08.心太软
    09.世界第一等(试听)

    10.大中国
    11.九百九十九朵玫瑰
    12.容易受伤的女人
    13.征服
    14.飘香
    15.来生缘
    16.是否
    17.雨蝶
    18.梅兰梅兰我爱你
    游客,如果您要查看本帖隐藏内容请回复

    提取码.txt (4 Bytes, 下载次数: 0, 售价: 10 金币)










    评分

    参与人数 1威望 +10 金币 +50 贡献 +10 收起 理由
    WSAN + 10 + 50 + 10 赞一个!

    查看全部评分

    鲜花鸡蛋

    WSAN  在2021-10-8 23:27  送朵鲜花  并说:送朵鲜花鼓励一下
    回复 鲜花(2) 鸡蛋(0)

    使用道具 举报

  • TA的每日心情
    难过
    5 小时前
  • 签到天数: 102 天

    [LV.6]常住居民II

    升级   57.9%

    8

    主题

    214

    帖子

    1158

    积分

    新手上路

    Rank: 1

    鲜花(2) 鸡蛋(0)
     楼主| 发表于 2021-10-6 22:33:16 | 显示全部楼层
    Exact Audio Copy V0.99 prebeta 5 from 4. May 2009

    EAC 抓取日志文件从6. 十月 2021, 11:05

    未知艺术家 / 未知标题

    使用驱动器  :ASUS    DVD-E818A9T   Adapter: 2  ID: 0

    读取模式     : 保护
    使用精确流   : 是
    废除音频缓冲 : 是
    使用 C2 指针 : 否

    读取偏移校正                   : 0
    读取 Lead-In 和 Lead-Out       : 否
    用静音填充抓取中丢失偏移的采样 : 是
    去除首尾静音块                 : 否
    在 CRC 计算中使用了空样本      : 否
    已用接口                       : Win NT 及 2000 本地 Win32 接口

    所用输出格式 : 内部 WAV 函数
    样本格式     : 44.100 Hz;16 Bit;立体声


    被抓轨 CD 的 TOC

         音轨 |   开始   |   长度   | 起始扇区 | 结尾扇区
        --------------------------------------------------
           1  |  0:00.00 |  4:29.01 |       0  |   20175  
           2  |  4:29.01 |  3:52.48 |   20176  |   37623  
           3  |  8:21.49 |  4:46.30 |   37624  |   59103  
           4  | 13:08.04 |  4:02.20 |   59104  |   77273  
           5  | 17:10.24 |  3:46.54 |   77274  |   94277  
           6  | 20:57.03 |  4:25.41 |   94278  |  114193  
           7  | 25:22.44 |  3:50.40 |  114194  |  131483  
           8  | 29:13.09 |  5:00.73 |  131484  |  154056  
           9  | 34:14.07 |  3:57.22 |  154057  |  171853  
          10  | 38:11.29 |  3:59.41 |  171854  |  189819  
          11  | 42:10.70 |  4:12.66 |  189820  |  208785  
          12  | 46:23.61 |  4:12.51 |  208786  |  227736  
          13  | 50:36.37 |  4:13.10 |  227737  |  246721  
          14  | 54:49.47 |  4:14.26 |  246722  |  265797  
          15  | 59:03.73 |  4:02.27 |  265798  |  283974  
          16  | 63:06.25 |  3:53.60 |  283975  |  301509  
          17  | 67:00.10 |  3:37.53 |  301510  |  317837  
          18  | 70:37.63 |  2:08.01 |  317838  |  327438  


    范围状态及错误

    已选择范围

         文件名 D:\未知艺术家 - 未知标题.wav

         峰值电平 100.0 %
         范围质量 99.9 %
         复制 CRC 3E8030A9
         复制成功

    没有错误发生

    状态报告结尾
    回复 鲜花(2) 鸡蛋(0)

    使用道具 举报

  • TA的每日心情

    2021-10-11 12:49
  • 签到天数: 420 天

    [LV.9]以坛为家II

    升级   100%

     成长值: 170

    20

    主题

    2693

    帖子

    8625

    积分

    VIP

    Rank: 5Rank: 5

    鲜花(1) 鸡蛋(0)
    发表于 2021-10-7 22:08:34 | 显示全部楼层
    都是曾经很流行的歌曲旋律,谢谢分享
    回复 鲜花(1) 鸡蛋(0)

    使用道具 举报

  • TA的每日心情
    无聊
    前天 11:32
  • 签到天数: 182 天

    [LV.7]常住居民III

    升级   50.25%

    4

    主题

    520

    帖子

    1005

    积分

    新手上路

    Rank: 1

    鲜花(0) 鸡蛋(0)
    发表于 2021-10-9 22:39:46 | 显示全部楼层
    里面的谢谢你的爱好听
    回复 鲜花(0) 鸡蛋(0)

    使用道具 举报

  • TA的每日心情
    奋斗
    15 小时前
  • 签到天数: 573 天

    [LV.9]以坛为家II

    升级   100%

    247

    主题

    2898

    帖子

    2万

    积分

    督察

    Rank: 8Rank: 8

    突出贡献优秀版主荣誉管理

    鲜花(18) 鸡蛋(0)
    发表于 2021-10-9 23:58:10 | 显示全部楼层
    隐藏错了:隐藏链接,提取码不要隐藏!大家都熟悉这样的方式。下次发帖注意下,有助你出售。
    看帖回帖,有礼有节;分享光荣,灌水可耻!
    回复 鲜花(18) 鸡蛋(0)

    使用道具 举报

  • TA的每日心情
    难过
    5 小时前
  • 签到天数: 102 天

    [LV.6]常住居民II

    升级   57.9%

    8

    主题

    214

    帖子

    1158

    积分

    新手上路

    Rank: 1

    鲜花(2) 鸡蛋(0)
     楼主| 发表于 2021-10-10 09:53:28 | 显示全部楼层
    WSAN 发表于 2021-10-9 23:58
    隐藏错了:隐藏链接,提取码不要隐藏!大家都熟悉这样的方式。下次发帖注意下,有助你出售。

    好的,努力学习,感谢指导!
    回复 鲜花(2) 鸡蛋(0)

    使用道具 举报

  • TA的每日心情
    奋斗
    昨天 18:47
  • 签到天数: 487 天

    [LV.9]以坛为家II

    升级   13.28%

    1

    主题

    1889

    帖子

    3531

    积分

    中级会员

    Rank: 3Rank: 3

    鲜花(0) 鸡蛋(0)
    发表于 2021-10-12 19:21:19 | 显示全部楼层
    都是耳熟能详的经典老歌,听听电子琴的演绎。谢谢分享!
    回复 鲜花(0) 鸡蛋(0)

    使用道具 举报

  • TA的每日心情
    郁闷
    9 小时前
  • 签到天数: 559 天

    [LV.9]以坛为家II

    升级   0%

    48

    主题

    5854

    帖子

    1万

    积分

    元老会员

    Rank: 6Rank: 6

    VIP勋章

    鲜花(2) 鸡蛋(0)
    发表于 2021-10-13 16:46:42 | 显示全部楼层
    很漂亮的CD封面,试听的效果也很不错,演奏的多是90年代的热门歌曲,感谢分享!
    回复 鲜花(2) 鸡蛋(0)

    使用道具 举报

    您需要登录后才可以回帖 登录 | 立即注册

    本版积分规则

    Archiver|手机版|小黑屋|移动版|数字音乐论坛 ( 津ICP备09009336号-1 )

    GMT+8, 2021-10-23 15:21 , Processed in 1.250000 second(s), 60 queries .

    Powered by Discuz! X3.4 Licensed

    © 2008-2021 www.22090.com

    快速回复 返回顶部 返回列表