设为首页

数字音乐论坛-怀旧金典

 找回密码
 立即注册
查看: 1212|回复: 17

[流行] [原创][张帝-太太我错了][WAV/CUE/356M][百度网盘]

[复制链接]
 成长值: 280

91

主题

851

帖子

9340

积分

VIP

Rank: 5Rank: 5

原创高手勋章

发表于 2021-4-7 18:47:20 | 显示全部楼层 |阅读模式
1.jpg


2.jpg


3.jpg


【专辑名称】张帝-太太我错了

【发行公司】乐风

【唱片编号】NCLF198-2VD

【发行时间】1971年/2014年复刻

【专辑语言】国语

【资源格式】WAV+CUE

【专辑曲目】

01、太太我错了

02、没良心的人

03、抛绣球

04、花花公子


[audio]
[/audio]


05、爱你爱到底

06、你是偷心的人

07、相亲相爱在一起

08、俩相依

09、你是负心人

10、几时再回头


[audio]
[/audio]


11、情人梦

12、因为我爱你


游客,如果您要查看本帖隐藏内容请回复


提取码.rar (89 Bytes, 下载次数: 8, 售价: 58 金币)


Exact Audio Copy V1.6 from 23. October 2020

EAC 抓取日志文件从7. 四月 2021, 18:17

未知艺术家 / 未知标题

使用驱动器  :PLDS    DVD-RW DS8A8SH   Adapter: 1  ID: 0

读取模式      : 可靠Secure
使用精确流     : 是
清空音频缓存    : 否
使用 C2 指示器 : 否

读取偏移校正:               : 6
读取 Lead-In 和 Lead-Out : 否
用静音填充抓取中丢失偏移的采样       : 是
去除首尾静音块               : 否
在CRC 计算中使用了空样本       : 是
已用接口                  : Win NT 及 2000 本地 Win32 接口

所用输出模式: : 内部 WAV 函数
样本格式    : 44.100 Hz; 16 Bit; 立体声


已抓取 CD 的 TOC

     音轨 |    起始    |    长度    |  起始扇区  |  结束扇区  
    --------------------------------------------
      1 |  0:00.00 |  2:06.36 |      0 |   9485
      2 |  2:06.36 |  3:26.08 |   9486 |  24943
      3 |  5:32.44 |  2:13.09 |  24944 |  34927
      4 |  7:45.53 |  3:03.32 |  34928 |  48684
      5 | 10:49.10 |  2:31.71 |  48685 |  60080
      6 | 13:21.06 |  2:39.25 |  60081 |  72030
      7 | 16:00.31 |  3:25.35 |  72031 |  87440
      8 | 19:25.66 |  3:42.50 |  87441 | 104140
      9 | 23:08.41 |  3:07.61 | 104141 | 118226
     10 | 26:16.27 |  3:36.57 | 118227 | 134483
     11 | 29:53.09 |  2:04.44 | 134484 | 143827
     12 | 31:57.53 |  3:20.07 | 143828 | 158834


范围状态及错误

已选择范围

     文件名 F:\分享\未知艺术家 - 未知标题.wav

     峰值电平 94.4 %
     抓取速度 4.2 X
     范围质量 100.0 %
     复制 CRC 21D12D5A
     复制成功

没有错误发生

状态报告结尾

---- CUETools DB Plugin V2.1.6

[CTDB TOCID: tdLkU7fW1I7h_EDzzplQbFjqMxo-] found
Submit result: tdLkU7fW1I7h_EDzzplQbFjqMxo- has been confirmed
Track | CTDB Status
  1   | (1/1) Accurately ripped
  2   | (1/1) Accurately ripped
  3   | (1/1) Accurately ripped
  4   | (1/1) Accurately ripped
  5   | (1/1) Accurately ripped
  6   | (1/1) Accurately ripped
  7   | (1/1) Accurately ripped
  8   | (1/1) Accurately ripped
  9   | (1/1) Accurately ripped
10   | (1/1) Accurately ripped
11   | (1/1) Accurately ripped
12   | (1/1) Accurately ripped



评分

参与人数 1威望 +8 金币 +16 贡献 +8 收起 理由
WSAN + 8 + 16 + 8 很给力!

查看全部评分

回复

使用道具 举报

1

主题

132

帖子

380

积分

新手上路

Rank: 1

发表于 2021-4-7 19:23:29 | 显示全部楼层
张帝的作品很风趣又诙谐,谢谢楼主,再一次欣赏这张!
回复

使用道具 举报

61

主题

2602

帖子

9175

积分

金牌会员

Rank: 5Rank: 5

原创高手勋章

发表于 2021-4-7 21:25:53 | 显示全部楼层
谢谢楼主分享,真是一张不多见的专辑。
回复

使用道具 举报

20

主题

2693

帖子

8745

积分

金牌会员

Rank: 5Rank: 5

发表于 2021-4-8 08:04:18 | 显示全部楼层
这专辑没听过,谢谢分享急智歌王的歌声
回复

使用道具 举报

7

主题

1328

帖子

3273

积分

中级会员

Rank: 3Rank: 3

发表于 2021-4-8 10:52:27 | 显示全部楼层
听过张帝的磁带,《没良心的人》,感谢分享!
回复

使用道具 举报

6

主题

2707

帖子

5341

积分

中级会员

Rank: 3Rank: 3

发表于 2021-4-8 14:33:04 | 显示全部楼层
张帝的这张专辑很少见,见到最多的还是《张帝问答》和他与女歌星的对唱专辑。
回复

使用道具 举报

 成长值: 3195

2

主题

665

帖子

1万

积分

VIP

Rank: 5Rank: 5

发表于 2021-4-8 14:36:04 | 显示全部楼层
张帝的歌曲轻松幽默,喜欢听,谢谢!
回复

使用道具 举报

94

主题

738

帖子

1万

积分

元老会员

Rank: 6Rank: 6

原创高手勋章

发表于 2021-4-8 23:36:51 | 显示全部楼层
现在真好 以前搞不到的专辑 现在都出复刻版了 谢谢分享
回复

使用道具 举报

1

主题

519

帖子

892

积分

新手上路

Rank: 1

发表于 2021-4-9 08:43:37 | 显示全部楼层
张帝,不愧为急智歌王,是现在60岁左右朋友的当年歌神,现场机智用歌曲诙谐回答提出的问题,不仅抖机灵而且唱功了得,当年听他的专辑不少,记住的不多,最有名的是你的母亲和你的太太同时掉进河里,你先救谁,谢谢楼主的分享,怀旧无限。
回复

使用道具 举报

5

主题

964

帖子

1万

积分

元老会员

Rank: 6Rank: 6

发表于 2021-4-9 08:48:23 | 显示全部楼层
听张帝的歌,就想到留长发、穿喇叭裤的八十年代!
回复

使用道具 举报

20

主题

1630

帖子

7602

积分

高级会员

Rank: 4

发表于 2021-4-9 09:30:12 | 显示全部楼层
当年家里买过他的磁带,记得有一首追!!
回复

使用道具 举报

13

主题

118

帖子

1610

积分

禁止访问

发表于 2021-4-17 00:07:47 | 显示全部楼层
提示: 作者被禁止或删除 内容自动屏蔽
回复

使用道具 举报

1

主题

127

帖子

375

积分

新手上路

Rank: 1

发表于 2021-5-15 10:56:53 | 显示全部楼层
这张专辑应该是张帝比较早期录制的,好像是七十年达的作品,比张帝要做和尚早
回复

使用道具 举报

 成长值: 1710

4

主题

135

帖子

1252

积分

VIP

Rank: 5Rank: 5

发表于 2022-4-21 12:39:52 | 显示全部楼层
本帖最后由 ┈─┼狼魂★ 于 2022-4-21 12:42 编辑

黑胶版我还没有哦
回复

使用道具 举报

 成长值: 1710

4

主题

135

帖子

1252

积分

VIP

Rank: 5Rank: 5

发表于 2022-4-21 12:41:15 | 显示全部楼层
谢谢楼主的分享,你最棒!!
回复

使用道具 举报

1

主题

49

帖子

112

积分

新手上路

Rank: 1

发表于 2022-9-12 12:25:39 | 显示全部楼层
有了复刻,让我们再能重寻失去的音乐
回复

使用道具 举报

0

主题

243

帖子

244

积分

新手上路

Rank: 1

发表于 2022-9-12 14:28:08 | 显示全部楼层
张帝风趣幽默实在是喜欢听
回复

使用道具 举报

0

主题

15

帖子

25

积分

新手上路

Rank: 1

发表于 2022-9-22 09:15:26 | 显示全部楼层
经典动听带入歌声中,感谢楼主分享。
回复

使用道具 举报

您需要登录后才可以回帖 登录 | 立即注册

本版积分规则

Archiver|手机版|小黑屋|客户端|数字音乐论坛 ( 津ICP备09009336号-1 )

GMT+8, 2022-10-5 23:17 , Processed in 1.171875 second(s), 30 queries .

Powered by Discuz! X3.4 Licensed

Copyright © 2008-2022, Tencent Cloud.

快速回复 返回顶部 返回列表