设为首页

数字音乐论坛-怀旧金典

 找回密码
 立即注册
查看: 1373|回复: 14

[流行] [原创][金嗓子张小英·旧情绵绵第五集][WAV/CUE/632M]

[复制链接]
 成长值: 280

91

主题

851

帖子

9340

积分

VIP

Rank: 5Rank: 5

原创高手勋章

发表于 2021-1-18 19:50:59 | 显示全部楼层 |阅读模式
旧情绵绵5.jpg


旧情绵绵5002.jpg


旧情绵绵5001.jpg


【专辑名称】金嗓子张小英·旧情绵绵第五集

【唱片编号】NSR-CD-2160

【发行公司】南方唱片

【发行时间】1995年

【资源格式】WAV+CUE

专辑曲目

01、几时再回头




02、丢不了的情意

03、我实在爱着你

04、幸福要自己去找

05、愿望

06、艳丽

07、月下祈祷

08、凤凰于飞

09、月下送君

10、明日天涯

11、让我慢慢告诉你

12、为什么忘不了

13、把爱埋藏在心窝

14、喜相逢

15、迷你迷你

16、别后

17、枫叶情

18、海棠姑娘

19、飘零的人

20、难忘初恋的情人




游客,如果您要查看本帖隐藏内容请回复


专辑提取码.rar (99 Bytes, 下载次数: 30, 售价: 68 金币)



Exact Audio Copy V1.6 from 23. October 2020

EAC 抓取日志文件从18. 一月 2021, 18:48

未知艺术家 / 未知标题

使用驱动器  :PLDS    DVD-RW DS8A8SH   Adapter: 1  ID: 0

读取模式      : 可靠Secure
使用精确流     : 是
清空音频缓存    : 否
使用 C2 指示器 : 否

读取偏移校正:               : 6
读取 Lead-In 和 Lead-Out : 否
用静音填充抓取中丢失偏移的采样       : 是
去除首尾静音块               : 否
在CRC 计算中使用了空样本       : 是
已用接口                  : Win NT 及 2000 本地 Win32 接口

所用输出模式: : 内部 WAV 函数
样本格式    : 44.100 Hz; 16 Bit; 立体声


已抓取 CD 的 TOC

     音轨 |    起始    |    长度    |  起始扇区  |  结束扇区  
    --------------------------------------------
      1 |  0:00.30 |  3:13.31 |     30 |  14535
      2 |  3:13.61 |  3:10.49 |  14536 |  28834
      3 |  6:24.35 |  2:29.48 |  28835 |  40057
      4 |  8:54.08 |  3:48.59 |  40058 |  57216
      5 | 12:42.67 |  2:47.19 |  57217 |  69760
      6 | 15:30.11 |  2:42.62 |  69761 |  81972
      7 | 18:12.73 |  3:41.07 |  81973 |  98554
      8 | 21:54.05 |  3:24.46 |  98555 | 113900
      9 | 25:18.51 |  2:24.35 | 113901 | 124735
     10 | 27:43.11 |  3:59.06 | 124736 | 142666
     11 | 31:42.17 |  3:04.60 | 142667 | 156526
     12 | 34:47.02 |  2:35.43 | 156527 | 168194
     13 | 37:22.45 |  3:50.53 | 168195 | 185497
     14 | 41:13.23 |  2:51.45 | 185498 | 198367
     15 | 44:04.68 |  2:39.00 | 198368 | 210292
     16 | 46:43.68 |  3:38.06 | 210293 | 226648
     17 | 50:21.74 |  3:28.23 | 226649 | 242271
     18 | 53:50.22 |  2:24.72 | 242272 | 253143
     19 | 56:15.19 |  3:12.47 | 253144 | 267590
     20 | 59:27.66 |  3:13.25 | 267591 | 282090


范围状态及错误

已选择范围

     文件名 F:\2\未知艺术家 - 未知标题.wav

     峰值电平 100.0 %
     抓取速度 5.0 X
     范围质量 99.9 %
     测试 CRC 6CAD2736
     复制 CRC 6CAD2736
     复制成功

没有错误发生

状态报告结尾

---- CUETools DB Plugin V2.1.6

[CTDB TOCID: gEbB4YYXDGEEa9EXe9mtW5cSCK4-] found
Submit result: gEbB4YYXDGEEa9EXe9mtW5cSCK4- has been confirmed
Track | CTDB Status
  1   | (1/1) Accurately ripped
  2   | (1/1) Accurately ripped
  3   | (1/1) Accurately ripped
  4   | (1/1) Accurately ripped
  5   | (1/1) Accurately ripped
  6   | (1/1) Accurately ripped
  7   | (1/1) Accurately ripped
  8   | (1/1) Accurately ripped
  9   | (1/1) Accurately ripped
10   | (1/1) Accurately ripped
11   | (1/1) Accurately ripped
12   | (1/1) Accurately ripped
13   | (1/1) Accurately ripped
14   | (1/1) Accurately ripped
15   | (1/1) Accurately ripped
16   | (1/1) Accurately ripped
17   | (1/1) Accurately ripped
18   | (1/1) Accurately ripped
19   | (1/1) Accurately ripped
20   | (1/1) Accurately ripped



评分

参与人数 1威望 +8 金币 +16 贡献 +8 收起 理由
WSAN + 8 + 16 + 8 很给力!

查看全部评分

回复

使用道具 举报

 成长值: 3195

178

主题

3955

帖子

5万

积分

VIP

Rank: 5Rank: 5

贵宾勋章

发表于 2021-1-18 20:20:28 | 显示全部楼层
张小英这个系列只见过1—4集,第5集很少见。感谢楼主分享!
回复

使用道具 举报

3

主题

2082

帖子

7463

积分

禁止访问

发表于 2021-1-18 20:24:06 | 显示全部楼层
张小英的老歌演绎很有辨识度,喜欢。
回复

使用道具 举报

6

主题

2707

帖子

5341

积分

中级会员

Rank: 3Rank: 3

发表于 2021-1-19 14:14:26 | 显示全部楼层
前4辑都已经收藏了,继续收下第五辑。
回复

使用道具 举报

5

主题

964

帖子

1万

积分

元老会员

Rank: 6Rank: 6

发表于 2021-1-19 15:04:09 | 显示全部楼层
张小英旧情绵绵,一直以为是四集,原来还有第五集,一定不能错过,谢谢分享!
回复

使用道具 举报

1

主题

679

帖子

1020

积分

新手上路

Rank: 1

发表于 2021-1-19 16:39:18 | 显示全部楼层
东南亚第2代歌手张小英 久仰大名  这个就知道4个 还有5  具体这个系列还有多少啊 谢谢楼主分享。估计现在很少有人有人知道张小英 林竹君 黄晓君 估计他们就知道一个邓丽君了。没办法 邓丽君影响力太大了。
回复

使用道具 举报

57

主题

1364

帖子

7478

积分

高级会员

Rank: 4

发表于 2021-1-20 12:51:44 | 显示全部楼层
感谢楼主分享张小英旧情绵绵系列专辑5
回复

使用道具 举报

1

主题

464

帖子

1033

积分

新手上路

Rank: 1

发表于 2021-1-21 20:19:29 | 显示全部楼层
金嗓子独特韵味的情歌,收藏了。谢谢!
回复

使用道具 举报

1

主题

1157

帖子

2212

积分

初级会员

Rank: 2

发表于 2021-1-30 20:44:15 | 显示全部楼层
謝謝分享 張小英第五集!

评分

参与人数 1威望 -20 金币 -20 贡献 -20 收起 理由
WSAN -20 -20 -20

查看全部评分

回复

使用道具 举报

260

主题

3078

帖子

3万

积分

督察

Rank: 8Rank: 8

突出贡献优秀版主荣誉管理

发表于 2021-2-1 21:39:22 | 显示全部楼层
看帖回帖,有礼有节;分享光荣,灌水可耻!
回复

使用道具 举报

1

主题

562

帖子

1550

积分

新手上路

Rank: 1

VIP勋章

发表于 2021-2-8 14:38:43 | 显示全部楼层
感谢分享 从来没有见过旧情绵绵第五集 这套音质不错
回复

使用道具 举报

 成长值: 3195

48

主题

6198

帖子

2万

积分

VIP

Rank: 5Rank: 5

发表于 2021-4-2 18:54:50 | 显示全部楼层
作为三君一英中的一位,她的嗓音属于高亢清亮的一类,确实有独到之处。
回复

使用道具 举报

17

主题

184

帖子

1890

积分

新手上路

Rank: 1

发表于 2022-1-16 22:06:35 | 显示全部楼层
张小英的旧情绵绵第五集第一次看到制作辛苦了
回复

使用道具 举报

1

主题

38

帖子

83

积分

新手上路

Rank: 1

发表于 2022-9-23 17:55:25 | 显示全部楼层
当年一盘张小英的翻录带,听得津津有味
回复

使用道具 举报

0

主题

243

帖子

244

积分

新手上路

Rank: 1

发表于 2022-9-23 19:51:55 | 显示全部楼层
上次就只有到1-4的专辑,很好
回复

使用道具 举报

您需要登录后才可以回帖 登录 | 立即注册

本版积分规则

Archiver|手机版|小黑屋|客户端|数字音乐论坛 ( 津ICP备09009336号-1 )

GMT+8, 2022-10-5 23:52 , Processed in 1.171875 second(s), 30 queries .

Powered by Discuz! X3.4 Licensed

Copyright © 2008-2022, Tencent Cloud.

快速回复 返回顶部 返回列表