设为首页

数字音乐论坛-怀旧金典

 找回密码
 立即注册
查看: 169|回复: 4

王晓燕《我是一片皎洁的白云》[CD-WAV整轨/331.70MB][百度]

[复制链接]
 成长值: 600

9

主题

210

帖子

704

积分

VIP

Rank: 5Rank: 5

发表于 2022-10-3 19:12:39 | 显示全部楼层 |阅读模式
本帖最后由 搜老歌 于 2022-10-3 19:54 编辑

DSCN5480_副本.JPG


DSCN5481_副本.JPG

DSCN5482_副本.JPG



专辑名称:我是一片皎洁的白云
专辑歌手:王晓燕
资源格式:WAV / 整轨
版权提供:
发行公司:四川文艺音像出版社
出版公司:四川文艺音像出版社
发行时间:
ISRC:
ISBN:978-7-88581-923-1
语言:


专辑介绍:

999251442.jpg


专辑曲目:

01. 儿女的心
02. 青衣江情歌
03. 月亮的女儿多欢畅
04. 党把春雨洒满羌山
05. 田野牧歌
06. 茶山情歌
07. 自古山里出歌手
08. 边寨摇篮曲
09. 一杯茶一杯酒
10. 三月街请茶歌
11. 丁琴歌
12. 我是一片皎洁的白云
13. 姑娘的花腰带
14. 壮族情歌对唱



试听,12. 我是一片皎洁的白云



下载地址
游客,如果您要查看本帖隐藏内容请回复



解压密码
王晓燕 - 我是一片皎洁的白云 mm.txt (38 Bytes, 下载次数: 2, 售价: 10 金币)


评分

参与人数 1威望 +8 金币 +16 贡献 +8 收起 理由
四季歌 + 8 + 16 + 8 很给力!

查看全部评分

回复

使用道具 举报

 成长值: 600

9

主题

210

帖子

704

积分

VIP

Rank: 5Rank: 5

发表于 2022-10-3 19:14:22 | 显示全部楼层
本帖最后由 搜老歌 于 2022-10-3 19:23 编辑

屏幕截图 2022-10-03 192203.jpg


Exact Audio Copy V0.99 prebeta 5 from 4. May 2009

EAC 抓取日志文件从21. 五月 2015, 19:20

王晓燕 / 我是一片皎洁的白云

使用驱动器  :PHILIPS SPD2216T   Adapter: 0  ID: 0

读取模式     : 保护
使用精确流   : 是
废除音频缓冲 : 是
使用 C2 指针 : 否

读取偏移校正                   : 0
读取 Lead-In 和 Lead-Out       : 否
用静音填充抓取中丢失偏移的采样 : 是
去除首尾静音块                 : 否
在 CRC 计算中使用了空样本      : 否
已用接口                       : Win NT 及 2000 本地 Win32 接口

所用输出格式 : 内部 WAV 函数
样本格式     : 44.100 Hz;16 Bit;立体声


被抓轨 CD 的 TOC

     音轨 |   开始   |   长度   | 起始扇区 | 结尾扇区
    --------------------------------------------------
       1  |  0:00.00 |  4:56.52 |       0  |   22251  
       2  |  4:56.52 |  5:12.68 |   22252  |   45719  
       3  | 10:09.45 |  2:07.16 |   45720  |   55260  
       4  | 12:16.61 |  2:31.72 |   55261  |   66657  
       5  | 14:48.58 |  2:28.11 |   66658  |   77768  
       6  | 17:16.69 |  2:56.36 |   77769  |   91004  
       7  | 20:13.30 |  3:14.27 |   91005  |  105581  
       8  | 23:27.57 |  2:52.51 |  105582  |  118532  
       9  | 26:20.33 |  1:53.20 |  118533  |  127027  
      10  | 28:13.53 |  3:16.28 |  127028  |  141755  
      11  | 31:30.06 |  3:29.14 |  141756  |  157444  
      12  | 34:59.20 |  3:54.05 |  157445  |  174999  
      13  | 38:53.25 |  3:14.49 |  175000  |  189598  
      14  | 42:07.74 |  3:31.23 |  189599  |  205446  


范围状态及错误

已选择范围

     文件名 F:\王晓燕 - 我是一片皎洁的白云.wav

     峰值电平 99.9 %
     范围质量 100.0 %
     复制 CRC 0F1BFCB1
     复制成功

没有错误发生

状态报告结尾

回复

使用道具 举报

1

主题

990

帖子

3862

积分

中级会员

Rank: 3Rank: 3

发表于 2022-10-3 20:22:17 | 显示全部楼层
很好听的专辑,下载收藏了,楼主辛苦分享。
回复

使用道具 举报

158

主题

1910

帖子

4万

积分

版主

Rank: 7Rank: 7Rank: 7

原创高手勋章

发表于 2022-10-4 06:57:24 | 显示全部楼层
民族特色浓郁的歌曲专辑,歌唱家的声音甜美,好听,谢谢分享!
回复

使用道具 举报

0

主题

1316

帖子

4437

积分

中级会员

Rank: 3Rank: 3

发表于 2022-10-5 18:19:23 | 显示全部楼层
声音很动听,圆润甜美。感谢制作分享早期经典资源
回复

使用道具 举报

您需要登录后才可以回帖 登录 | 立即注册

本版积分规则

Archiver|手机版|小黑屋|客户端|数字音乐论坛 ( 津ICP备09009336号-1 )

GMT+8, 2022-11-29 15:23 , Processed in 1.312500 second(s), 30 queries .

Powered by Discuz X3.4 Licensed

© 2008-2022 数坛主机由华中云动力支持!

快速回复 返回顶部 返回列表